top of page

Gemma Verified Group

Public·35 members
Julian Nelson
Julian Nelson

One Direction 720p


This movie is a must for all directioners out there. Believe me It's awesome!! But I'll advice you to watch it in 3D because this movie becomes an out of the world experience in 3D. I loved the way 1D's life is shown in this movie. And the best part is when all of them change into superheroes for a second or two. Its just amazing how their life has taken a toll. From X factor to this! They just do what the do best and do it with all their heart. They are like brothers and are really funny and that's what is shown in the movie. In my opinion ,Nothing important is kept away from the audience. They are down to Earth guys who made it big just by believing in themselves. They are there for their families, fans, and friends and no matter how much they get caught up in their career they will never forget about the ones they love.I don't understand though why people are commenting saying its sh*t and a waste of time, surely if they think so strongly that way, they would of realized near enough at the start of the film if it was for them or not, and if they decide it wasn't then they should have gone and 'made better use of the their time' though I think that it is a perfect film for directioners.Everyone is entitled to their own opinion, but when it is based on what others thinks and isn't logical, it's just pathetic. The boys are amazing lads and anyone with eyes and an open heart would realize that even if they don't understand why dedicated fans like me feel so proud and in love with them. They empower and have saved a lot of our lives, they're an incredible significance to us and will always have a special place in our hearts.I'm a massive directioner so I loved the movie.Thank you Morgan for bringing us such a fantastic movie.




One Direction 720p


Download: https://www.google.com/url?q=https%3A%2F%2Furlcod.com%2F2u1MTw&sa=D&sntz=1&usg=AOvVaw3bWHHLf1jYBXjU09i61S7q



Google has also integrated Voice Actions into Now. They can handle stuff like sending messages (SMS or email), initiating a voice call, asking for directions, taking a note or opening a site. Google Now can also launch apps, check and manage your calendar and look for nearby places of interest and stuff like movie openings in theaters.


The Alcatel One Touch Hero is powered by a Mediatek MT6589 chipset. It has a quad-core Cortex-A7 processor running at 1.5GHz, 2GB of RAM and a PowerVR SGX544 GPU. Those are not bad base specs, they are in fact a little better than what the Moto G has and that one performed wonderfully. But the Moto G is a 720p device, while the Hero has a 1080p screen.


Time for some fun with 3D gaming. 1080p and mid-range chipsets don't usually match but the PowerVR SGX544 usually makes for a good GPU. It turns out that GLBenchmark 2.5 Egypt level graphics are too much for the Hero, which offered a low 12fps. Other phablets like the Mate and Mega 6.3 don't do too hot either, but they only have to render graphics at 720p, which gives them a big boost.


Still, benchmark graphics are more demanding than real-world game graphics, so we tried Epic Citadel at High Quality. There the Hero posted a playable 43.5fps framerate, actually beating the 720p devices, which ran at their native resolution. So games shouldn't be a problem, even with the 1080p screen. Perhaps not the most demanding games, but most.


Questions also need to be asked about how important that boost is when other elements of a game's visual identity need to be downgraded in order to accommodate stereoscopy. The fact is that current generation consoles are being pushed to their limit and questions need to be asked about whether the Xbox 360 or the PlayStation 3 have the horsepower to provide a worthwhile 3D experience: the fact is that 3D introduces a big overhead - to provide a full 720p stereoscopic effect, fill-rate requirements double and geometry needs to be processed twice. This is why so many 3D games have resolution deficits compared to the 2D version and why frame-rates often suffer.


We even see the same thing on the Nintendo 3DS to a lesser extent, where fighting games like Super Street Fighter IV and Dead or Alive: Dimensions run at 60 frames per second in 2D, but with frame-rate halved when running in 3D. And again, we also see a lack of direction with the 3D implementation in general: a case in point is Namco-Bandai's Ridge Racer offers very little at all to players with stereoscopy engaged over the same game running in 2D, and in a game like this where the graphical impact isn't hugely impressive, you have to wonder how much better it would have looked if all the GPU power could have been concentrated into a 2D game.


GeneralComplete name : One Direction - Midnight Memories [Music Video] 720p [Sbyky].MP4Format : MPEG-4Format profile : Base MediaCodec ID : isomFile size : 48.9 MiBDuration : 3mn 20sOverall bit rate mode : VariableOverall bit rate : 2 041 KbpsEncoded date : UTC 2014-02-09 06:37:28Tagged date : UTC 2014-02-09 06:37:28VideoID : 1Format : AVCFormat/Info : Advanced Video CodecFormat profile : [email protected] Format settings, CABAC : YesFormat settings, ReFrames : 3 framesCodec ID : avc1Codec ID/Info : Advanced Video CodingDuration : 3mn 20sDuration_LastFrame : -39msBit rate : 1 912 KbpsWidth : 1 280 pixelsHeight : 720 pixelsDisplay aspect ratio : 16:9Frame rate mode : ConstantFrame rate : 25.000 fpsColor space : YUVChroma subsampling : 4:2:0Bit depth : 8 bitsScan type : ProgressiveBits/(Pixel*Frame) : 0.083Stream size : 45.8 MiB (94%)Encoded date : UTC 2014-02-09 06:37:28Tagged date : UTC 2014-02-09 06:37:28AudioID : 2Format : AACFormat/Info : Advanced Audio CodecFormat profile : LCCodec ID : 40Duration : 3mn 20sBit rate mode : VariableBit rate : 126 KbpsChannel(s) : 2 channelsChannel positions : Front: L RSampling rate : 44.1 KHzCompression mode : LossyStream size : 3.01 MiB (6%)Encoded date : UTC 2014-02-09 06:32:49Tagged date : UTC 2014-02-09 06:32:49Shared By Sbyky


Watch online streaming dan Nonton Movie One Direction: This Is Us 2013 BluRay 480p & 720p mp4 mkv hindi dubbed, eng sub, sub indo, nonton online streaming film One Direction: This Is Us 2013 full hd movies free download Movie gratis via google drive, openload, uptobox, upfile, mediafire direct link download on index movies, world4ufree, bolly4u, downloadhub, tamilrockers, rarbg, torrent, yify, eztv, erosnow, mkvcage, pahe.in, ganool, filmywap, bioskopkeren, layarkaca21, indoxxi, dunia21, Lk21, 123movies, 300mbfilms, subscene, 300mb movies, Tv21, Televisi21, 9xmovie, khatrimaza, moviesbaba, hdmovie8, mkv movies king, mkvmoviesking, Mkvking, Mkvking.com .


About

Welcome to the group! You can connect with other members, ge...

Members

bottom of page